(Pop) VA - Русская Коллекция. Дискотека 80-90х. Часть 1 (2CD) - 2009, FLAC (image+.cue), lossless

Страницы:  1
Ответить
Автор
Сообщение

makar77777

Стаж: 8 лет 8 месяцев

Сообщений: 100

makar77777 · 29-Мар-13 13:43 (6 лет 4 месяца назад, ред. 09-Апр-13 08:46)

Русская Коллекция. Дискотека 80-90х. Часть 1 (2CD)
Жанр: Pop
Страна-производитель диска: Россия
Год издания: 2009
Издатель (лейбл): Синерджи
Страна: Россия
Аудиокодек: FLAC (*.flac)
Тип рипа: image+.cue
Битрейт аудио: lossless
Продолжительность: CD1-79:34/CD2-79:22
Источник (релизер): Собственные CD
Наличие сканов в содержимом раздачи: да
Треклист - CD1
01. С. Васюта и Сладкий сон - На белом покрывале января
02. Комиссар - Ты уйдешь
03. Студия-80 - Я не жалею
04. Ласковый май - Белые розы
05. Маленький принц - Прощай
06. Черникова Лариса - Рука в руке
07. Кристина corp. - На память
08. Ветлицкая Наталья - Плейбой
09. Разина Светлана - Ночной охотник
10. Жуков Рома - Синий иней
11. Мираж - Снова вместе
12. Пахомов Константин - Холодный берег
13. Гулькина Наталья - Айвенго
14. ЛСД - Чао, бамбина
15. Апина Алена - Ксюша
16. Ван Моо - Народное техно
17. Демо - Солнышко
18. Твой день - Хуанхэ-желтая река
Треклист - CD2
01. Принцесса - Не со мной
02. Мираж - Звезды нас ждут
03. Жуков Рома - Я люблю Вас
04. Лада Дэнс - Аромат любви
05. Стрелки - Ты бросил меня
06. Разина Светлана - Света
07. Шоколад - Прости прощай
08. Черникова Лариса - Ты полети, моя звезда!
09. Кармэн - Лондон, гудбай
10. Mr. Credo - Воздушный шар
11. Кристина corp. - Снег во сне
12. Комбинация - Американ бой
13. Технология - Нажми на кнопку
14. Забытый разговор - Арабское золото
15. Ветлицкая Наталья - Магадан
16. Анонс - Моряки
17. Дискотека Авария - Давай, Авария!
18. Руки Вверх - Студент
19. Шурочкин Владимир - Гудбай, бэби
EAC1
Exact Audio Copy V0.99 prebeta 5 from 4. May 2009
Отчёт EAC об извлечении, выполненном 29. марта 2013, 0:22
Various / Русская Коллекция. Дискотека 80-90 х. Часть 1 (CD1)
Дисковод: HP DVD Writer 1040d Adapter: 1 ID: 0
Режим чтения : Достоверность
Использование точного потока : Да
Отключение кэша аудио : Да
Использование указателей C2 : Нет
Коррекция смещения при чтении : 6
Способность читать области Lead-in и Lead-out : Нет
Заполнение пропущенных сэмплов тишиной : Да
Удаление блоков с тишиной в начале и конце : Нет
При вычислениях CRC использовались нулевые сэмплы : Да
Интерфейс : Встроенный Win32-интерфейс для Win NT/2000
Выходной формат : Внутренние WAV-операции
Формат сэмплов : 44.100 Гц; 16 бит; стерео
TOC извлечённого CD
Трек | Старт | Длительность | Начальный сектор | Конечный сектор
---------------------------------------------------------------------
1 | 0:00.00 | 6:05.70 | 0 | 27444
2 | 6:05.70 | 4:56.23 | 27445 | 49667
3 | 11:02.18 | 5:00.00 | 49668 | 72167
4 | 16:02.18 | 5:39.64 | 72168 | 97656
5 | 21:42.07 | 5:18.33 | 97657 | 121539
6 | 27:00.40 | 4:13.04 | 121540 | 140518
7 | 31:13.44 | 4:19.38 | 140519 | 159981
8 | 35:33.07 | 4:24.03 | 159982 | 179784
9 | 39:57.10 | 3:51.73 | 179785 | 197182
10 | 43:49.08 | 3:36.06 | 197183 | 213388
11 | 47:25.14 | 4:34.54 | 213389 | 233992
12 | 51:59.68 | 4:22.41 | 233993 | 253683
13 | 56:22.34 | 4:50.74 | 253684 | 275507
14 | 61:13.33 | 3:14.02 | 275508 | 290059
15 | 64:27.35 | 3:10.02 | 290060 | 304311
16 | 67:37.37 | 3:44.02 | 304312 | 321113
17 | 71:21.39 | 4:17.36 | 321114 | 340424
18 | 75:39.00 | 3:55.67 | 340425 | 358116
Характеристики диапазона извлечения и сообщения об ошибках
Выбранный диапазон
Имя файла W:\Новая папка\Various - Русская Коллекция. Дискотека 80-90 х. Часть 1 (CD1).wav
Пиковый уровень 100.0 %
Качество диапазона 100.0 %
CRC теста C409C829
CRC копии C409C829
Копирование... OK
Ошибок не произошло
AccurateRip: сводка
Трек 1 нет в базе данных
Трек 2 нет в базе данных
Трек 3 нет в базе данных
Трек 4 нет в базе данных
Трек 5 нет в базе данных
Трек 6 нет в базе данных
Трек 7 нет в базе данных
Трек 8 нет в базе данных
Трек 9 нет в базе данных
Трек 10 нет в базе данных
Трек 11 нет в базе данных
Трек 12 нет в базе данных
Трек 13 нет в базе данных
Трек 14 нет в базе данных
Трек 15 нет в базе данных
Трек 16 нет в базе данных
Трек 17 нет в базе данных
Трек 18 нет в базе данных
Ни одного трека нет в базе AccurateRip
Конец отчёта
EAC2
Exact Audio Copy V0.99 prebeta 5 from 4. May 2009
Отчёт EAC об извлечении, выполненном 29. марта 2013, 3:19
Various / Русская Коллекция. Дискотека 80-90 х. Часть 1 (CD2)
Дисковод: HP DVD Writer 1040d Adapter: 1 ID: 0
Режим чтения : Достоверность
Использование точного потока : Да
Отключение кэша аудио : Да
Использование указателей C2 : Нет
Коррекция смещения при чтении : 6
Способность читать области Lead-in и Lead-out : Нет
Заполнение пропущенных сэмплов тишиной : Да
Удаление блоков с тишиной в начале и конце : Нет
При вычислениях CRC использовались нулевые сэмплы : Да
Интерфейс : Встроенный Win32-интерфейс для Win NT/2000
Выходной формат : Внутренние WAV-операции
Формат сэмплов : 44.100 Гц; 16 бит; стерео
TOC извлечённого CD
Трек | Старт | Длительность | Начальный сектор | Конечный сектор
---------------------------------------------------------------------
1 | 0:00.00 | 4:18.01 | 0 | 19350
2 | 4:18.01 | 4:25.50 | 19351 | 39275
3 | 8:43.51 | 4:24.30 | 39276 | 59105
4 | 13:08.06 | 3:14.72 | 59106 | 73727
5 | 16:23.03 | 3:44.63 | 73728 | 90590
6 | 20:07.66 | 3:15.00 | 90591 | 105215
7 | 23:22.66 | 4:54.72 | 105216 | 127337
8 | 28:17.63 | 4:42.32 | 127338 | 148519
9 | 33:00.20 | 5:13.25 | 148520 | 172019
10 | 38:13.45 | 4:33.72 | 172020 | 192566
11 | 42:47.42 | 3:39.34 | 192567 | 209025
12 | 46:27.01 | 4:44.07 | 209026 | 230332
13 | 51:11.08 | 4:19.20 | 230333 | 249777
14 | 55:30.28 | 3:52.44 | 249778 | 267221
15 | 59:22.72 | 3:50.25 | 267222 | 284496
16 | 63:13.22 | 4:00.05 | 284497 | 302501
17 | 67:13.27 | 4:20.69 | 302502 | 322070
18 | 71:34.21 | 3:49.37 | 322071 | 339282
19 | 75:23.58 | 3:58.59 | 339283 | 357191
Характеристики диапазона извлечения и сообщения об ошибках
Выбранный диапазон
Имя файла W:\Новая папка\Various - Русская Коллекция. Дискотека 80-90 х. Часть 1 (CD2).wav
Пиковый уровень 100.0 %
Качество диапазона 100.0 %
CRC теста 74906BE7
CRC копии 74906BE7
Копирование... OK
Ошибок не произошло
AccurateRip: сводка
Трек 1 нет в базе данных
Трек 2 нет в базе данных
Трек 3 нет в базе данных
Трек 4 нет в базе данных
Трек 5 нет в базе данных
Трек 6 нет в базе данных
Трек 7 нет в базе данных
Трек 8 нет в базе данных
Трек 9 нет в базе данных
Трек 10 нет в базе данных
Трек 11 нет в базе данных
Трек 12 нет в базе данных
Трек 13 нет в базе данных
Трек 14 нет в базе данных
Трек 15 нет в базе данных
Трек 16 нет в базе данных
Трек 17 нет в базе данных
Трек 18 нет в базе данных
Трек 19 нет в базе данных
Ни одного трека нет в базе AccurateRip
Конец отчёта
Спектр - CD1
Спектр - CD2
Download
Сайт не распространяет и не хранит электронные версии произведений, а лишь предоставляет доступ к создаваемому пользователями каталогу ссылок на торрент-файлы, которые содержат только списки хеш-сумм
Как скачивать? (для скачивания .torrent файлов необходима регистрация)
[Профиль]  [ЛС] 

zoomerband

Стаж: 9 лет

Сообщений: 862

zoomerband · 29-Мар-13 19:47 (спустя 6 часов)

Долгоиграющий многодисковый самопал из разных источников: CD, LP, Tape, MC, TV translation...
[Профиль]  [ЛС] 

Дед Морoз

Стаж: 10 лет 8 месяцев

Сообщений: 1764

Дед Морoз · 29-Мар-13 20:05 (спустя 18 мин.)

Народ любит именно такие сборники слушать в mp3-формате в машине или в телефоне.
[Профиль]  [ЛС] 

@lexsseison

Стаж: 6 лет 6 месяцев

Сообщений: 88

@lexsseison · 31-Мар-13 07:02 (спустя 1 день 10 часов)

А что в машине нет качественной аппаратуры что бы послушать хороший CD
[Профиль]  [ЛС] 

bergguscha

Стаж: 10 лет 2 месяца

Сообщений: 94

bergguscha · 01-Апр-13 03:33 (спустя 20 часов, ред. 01-Апр-13 11:28)

bergguscha писал(а):
58642934.cue + .flac на маке. что делат? :О
https://rutracker.org/forum/viewtopic.php?t=3984488
[Профиль]  [ЛС] 

makar77777

Стаж: 8 лет 8 месяцев

Сообщений: 100

makar77777 · 01-Июн-13 10:28 (спустя 2 месяца)

У меня дома и в машине очень хорошая аппаратура, слушаю CD. Когда еду на работу в автобусе и в метро слушаю плеер mp3
[Профиль]  [ЛС] 

Miha_M

Стаж: 9 лет 6 месяцев

Сообщений: 14


Miha_M · 23-Июл-13 22:53 (спустя 1 месяц 22 дня)

Палёнка , звук ацтой.
[Профиль]  [ЛС] 

Дед Морoз

Стаж: 10 лет 8 месяцев

Сообщений: 1764

Дед Морoз · 23-Июл-13 23:38 (спустя 44 мин.)

makar77777,
Когда езжу по делам, слушаю плеер FLAC. Старенький он уже, но три полноценных альбома влезает.
[Профиль]  [ЛС] 

makar77777

Стаж: 8 лет 8 месяцев

Сообщений: 100

makar77777 · 27-Июл-13 01:31 (спустя 3 дня)

Для плеера с форматом FLAC нужны хорошие наушники
[Профиль]  [ЛС] 

Дед Морoз

Стаж: 10 лет 8 месяцев

Сообщений: 1764

Дед Морoз · 27-Июл-13 08:49 (спустя 7 часов)

Не спорю. Мои слабо прижимаются к ушам, прижмёшь - звук хороший, отпустишь - никакой.
[Профиль]  [ЛС] 

makar77777

Стаж: 8 лет 8 месяцев

Сообщений: 100

makar77777 · 18-Окт-13 15:07 (спустя 2 месяца 22 дня)

Ни чего страшного дружище. Купишь себе классные объёмные (уши) и будешь отрываться в пути с классным любимым музоном
[Профиль]  [ЛС] 

Brikos

Стаж: 8 лет 4 месяца

Сообщений: 30

Brikos · 29-Окт-13 20:16 (спустя 11 дней)

Эх.... ностальгия. Слушаю и понимаю - ДОРВАЛИСЬ мы до электронной музыки в те годы... Если бы не гениальные исполнители и звукорежиссеры, нас бы рвало на родину.
[Профиль]  [ЛС] 

makar77777

Стаж: 8 лет 8 месяцев

Сообщений: 100

makar77777 · 10-Ноя-13 15:35 (спустя 11 дней, ред. 15-Ноя-13 18:13)

Ностальгия - это страшная сила! Врубаешь (Ласковый май, Мираж, Фристайл и многое другое) школа, юность, и радость и слезы наворачиваются!
[Профиль]  [ЛС] 
 
Ответить
Loading...
Error